<?xml version="1.0" standalone="no"?>
<!DOCTYPE svg PUBLIC "-//W3C//DTD SVG 1.1//EN" "http://www.w3.org/Graphics/SVG/1.1/DTD/svg11.dtd">
<svg xmlns="http://www.w3.org/2000/svg">
<defs >
<font id="Sen" horiz-adv-x="589" ><font-face
    font-family="Sen"
    units-per-em="1024"
    panose-1="0 0 0 0 0 0 0 0 0 0"
    ascent="962"
    descent="-270"
    alphabetic="0" />
<glyph unicode=" " glyph-name="space" horiz-adv-x="300" />
<glyph unicode="!" glyph-name="exclam" horiz-adv-x="320" d="M216 670V230H104V670H216ZM160 142Q193 142 216 119T240 62Q240 29 217 6T160 -18Q127 -18 104 5T80 62Q80 95 103 118T160 142Z" />
<glyph unicode="&quot;" glyph-name="quotedbl" horiz-adv-x="452" d="M382 695V421H270V695H382ZM182 695V421H70V695H182Z" />
<glyph unicode="#" glyph-name="numbersign" horiz-adv-x="810" d="M660 255V155H528L481 0H383L429 155H286L238 0H140L187 155H80V255H217L259 393H150V503H292L343 670H444L393 503H535L586 670H687L635 503H730V393H601L559 255H660ZM316 255H460L502 393H359L316
255Z" />
<glyph unicode="$" glyph-name="dollar" horiz-adv-x="562" d="M230 705H324V649Q366 644 401 631T461 603V478Q429 499 389 516T302 533Q278 533 255 526T217 505T202 467Q202 437 228 422T293 391L372 359Q437 334 466 294T496 204Q496 158 474 122T412 60T324
25V-52H230V21Q186 27 147 43T77 82V207Q116 178 164 158T268 137Q306 137 333 152T360 198Q360 221 338 236T290 262L191 298Q119 324 95 368T70 466Q70 513 91 549T149 610T230 645V705Z" />
<glyph unicode="%" glyph-name="percent" horiz-adv-x="824" d="M575 705L659 663L248 -20L167 22L575 705ZM192 685Q237 685 271 665T325 609T344 532Q344 490 325 455T272 400T192 379Q147 379 113 399T59 455T40 532Q40 574 59 609T112 664T192 685ZM193 598Q166
598 148 579T129 532Q129 505 147 486T193 466Q220 466 238 485T257 532Q257 559 239 578T193 598ZM632 291Q677 291 711 271T765 215T784 138Q784 96 765 61T712 6T632 -15Q587 -15 553 5T499 61T480 138Q480 180 499 215T552 270T632 291ZM633 204Q606 204 588
185T569 138Q569 111 587 92T633 72Q660 72 678 91T697 138Q697 165 679 184T633 204Z" />
<glyph unicode="&amp;" glyph-name="ampersand" horiz-adv-x="742" d="M327 685Q381 685 427 663T502 603T531 516Q531 471 509 440T454 384T387 339Q383 337 380 334Q400 311 421 288T464 242Q481 266 497 292T531 350H669Q637 295 606 246T545 156Q581 119 619
80T697 0H538Q521 17 505 33T473 67Q435 31 387 8T270 -15Q204 -15 154 8T74 73T45 170Q45 218 67 252T124 311T199 357Q167 391 145 427T123 513Q123 564 150 603T224 663T327 685ZM262 502Q262 480 275 458T310 412Q345 432 368 454T392 507Q392 535 372 551T326
567Q300 567 281 551T262 502ZM189 180Q189 143 216 123T283 103Q321 103 346 116T394 152Q366 182 337 213T276 278Q239 257 214 235T189 180Z" />
<glyph unicode="&apos;" glyph-name="quotesingle" horiz-adv-x="252" d="M182 670V396H70V670H182Z" />
<glyph unicode="(" glyph-name="parenleft" horiz-adv-x="383" d="M348 690Q318 656 291 604T242 490T209 365T197 245Q197 185 209 121T242 -3T290 -115T348 -200H227Q186 -157 149 -88T89 68T65 245Q65 310 78 375T115 500T167 609T227 690H348Z" />
<glyph unicode=")" glyph-name="parenright" horiz-adv-x="403" d="M55 690Q85 656 112 604T161 490T194 365T206 245Q206 185 194 121T161 -3T113 -115T55 -200H176Q217 -157 254 -88T314 68T338 245Q338 310 325 375T288 500T236 609T176 690H55Z" />
<glyph unicode="*" glyph-name="asterisk" horiz-adv-x="496" d="M297 716L292 603L390 644L421 551L319 521L391 431L312 373L248 471L185 373L105 431L178 521L75 551L107 644L205 603L199 716H297Z" />
<glyph unicode="+" glyph-name="plus" horiz-adv-x="550" d="M470 373V253H335V117H215V253H80V373H215V508H335V373H470Z" />
<glyph unicode="," glyph-name="comma" horiz-adv-x="283" d="M113 115L225 87L125 -165L33 -149L113 115Z" />
<glyph unicode="-" glyph-name="hyphen" horiz-adv-x="421" d="M361 318V198H60V318H361Z" />
<glyph unicode="." glyph-name="period" horiz-adv-x="276" d="M138 142Q171 142 194 119T218 62Q218 29 195 6T138 -18Q105 -18 82 5T58 62Q58 95 81 118T138 142Z" />
<glyph unicode="/" glyph-name="slash" horiz-adv-x="444" d="M404 705L138 -200H40L303 705H404Z" />
<glyph unicode="0" glyph-name="zero" horiz-adv-x="575" d="M289 685Q375 685 432 638T518 511T547 335Q547 239 519 160T433 33T289 -15Q203 -15 146 32T60 159T31 335Q31 431 59 510T145 637T289 685ZM289 564Q249 564 223 534T183 452T170 335Q170 270 183
219T222 137T289 107Q329 107 355 137T395 218T409 335Q409 400 396 451T356 533T289 564Z" />
<glyph unicode="1" glyph-name="one" horiz-adv-x="575" d="M505 123V0H92V123H229V473Q199 448 164 435T98 415V550Q148 565 195 597T275 670H367V123H505Z" />
<glyph unicode="2" glyph-name="two" horiz-adv-x="575" d="M274 685Q343 685 394 660T475 589T504 482Q504 432 489 391T444 309T374 222T279 117H509V0H72V56Q168 160 233 231T332 354T366 446Q366 497 333 525T249 554Q203 554 159 530T87 476V618Q117 644
167 664T274 685Z" />
<glyph unicode="3" glyph-name="three" horiz-adv-x="575" d="M254 685Q325 685 379 660T465 592T497 492Q497 447 477 416T427 365T366 340Q397 333 427 314T477 263T497 186Q497 127 465 82T377 11T253 -15Q199 -15 153 1T79 41V172Q113 149 150 129T238 108Q289
108 324 132T359 204Q359 232 341 250T295 278T234 288H179V396H234Q286 396 322 411T359 469Q359 513 322 537T234 562Q191 562 158 545T97 499V629Q123 653 163 669T254 685Z" />
<glyph unicode="4" glyph-name="four" horiz-adv-x="575" d="M448 670V261H539V148H448V0H320V148H38V230Q120 320 203 427T361 670H448ZM320 418Q290 373 264 335T206 261H320V418Z" />
<glyph unicode="5" glyph-name="five" horiz-adv-x="575" d="M474 670V546H231V405Q248 412 272 416T323 421Q373 421 416 397T487 329T514 226Q514 148 479 95T386 13T257 -15Q190 -15 143 6T70 49V173Q106 151 146 130T238 108Q298 108 337 133T376 210Q376
256 337 284T238 312Q200 312 169 304T109 287V670H474Z" />
<glyph unicode="6" glyph-name="six" horiz-adv-x="575" d="M459 670Q419 631 370 586T279 492T214 396Q237 419 265 433T326 447Q387 447 435 419T511 342T539 232Q539 165 508 109T421 19T295 -15Q228 -15 171 16T79 105T44 243Q44 310 70 374T135 495T214 597T284
670H459ZM293 327Q248 327 216 297T183 221Q183 172 215 140T293 108Q337 108 369 140T401 221Q401 266 369 296T293 327Z" />
<glyph unicode="7" glyph-name="seven" horiz-adv-x="575" d="M537 670V613Q483 523 440 447T367 301T320 157T303 0H143Q143 99 176 191T259 372T360 546H62V670H537Z" />
<glyph unicode="8" glyph-name="eight" horiz-adv-x="575" d="M288 685Q346 685 394 663T470 599T499 502Q499 444 471 409T407 353Q450 335 484 294T519 195Q519 134 489 87T406 12T288 -15Q222 -15 170 12T87 86T57 195Q57 252 91 293T169 353Q132 373 105 408T77
502Q77 558 105 599T181 662T288 685ZM288 569Q253 569 227 545T200 482Q200 443 226 420T288 396Q322 396 349 419T376 482Q376 521 349 545T288 569ZM288 297Q248 297 218 270T187 200Q187 157 215 129T288 101Q331 101 360 129T389 200Q389 243 358 270T288
297Z" />
<glyph unicode="9" glyph-name="nine" horiz-adv-x="575" d="M118 0Q158 39 207 84T298 178T363 274Q340 251 312 237T251 223Q190 223 142 251T66 328T38 438Q38 505 69 561T156 651T282 685Q349 685 406 654T498 565T533 427Q533 360 507 296T442 175T363 73T293
0H118ZM284 343Q329 343 361 373T394 449Q394 498 362 530T284 562Q240 562 208 530T176 449Q176 404 208 374T284 343Z" />
<glyph unicode=":" glyph-name="colon" horiz-adv-x="320" d="M160 542Q193 542 216 519T240 462Q240 429 217 406T160 382Q127 382 104 405T80 462Q80 495 103 518T160 542ZM160 142Q193 142 216 119T240 62Q240 29 217 6T160 -18Q127 -18 104 5T80 62Q80 95
103 118T160 142Z" />
<glyph unicode=";" glyph-name="semicolon" horiz-adv-x="364" d="M198 542Q231 542 254 519T278 462Q278 429 255 406T198 382Q165 382 142 405T118 462Q118 495 141 518T198 542ZM143 115L255 87L155 -165L63 -149L143 115Z" />
<glyph unicode="&lt;" glyph-name="less" horiz-adv-x="550" d="M495 593V455L219 303L495 138V0L60 276V327L495 593Z" />
<glyph unicode="=" glyph-name="equal" horiz-adv-x="551" d="M471 471V351H80V471H471ZM471 271V151H80V271H471Z" />
<glyph unicode="&gt;" glyph-name="greater" horiz-adv-x="550" d="M50 593V455L326 303L50 138V0L485 276V327L50 593Z" />
<glyph unicode="?" glyph-name="question" horiz-adv-x="585" d="M275 685Q335 685 387 661T472 590T505 480Q505 441 487 412T441 360T386 318T341 280T324 239L325 218H198V258Q198 280 215 300T259 339T311 379T355 421T373 467Q373 508 341 534T255 560Q203
560 160 541T80 479V611Q111 643 160 664T275 685ZM266 142Q299 142 322 119T346 62Q346 29 323 6T266 -18Q233 -18 210 5T186 62Q186 95 209 118T266 142Z" />
<glyph unicode="@" glyph-name="at" horiz-adv-x="809" d="M405 612Q479 612 544 589T660 522T738 416T767 276Q767 216 742 168T673 92T573 64Q530 64 501 82T464 127Q437 94 404 79T333 64Q261 64 222 114T194 246Q202 306 231 349T304 416T397 440Q430 440
456 426T498 391L506 430H594L549 239Q538 194 544 170T585 145Q603 145 622 158T655 199T669 276Q669 359 634 413T538 494T405 521Q332 521 272 487T177 390T141 243Q141 160 175 102T268 14T405 -17Q469 -17 513 -6T606 31L647 -43Q587 -74 529 -90T405 -107Q303
-107 221 -64T91 58T43 243Q43 323 71 390T149 507T264 584T405 612ZM404 348Q360 348 331 321T291 246Q281 201 299 175T355 148Q395 148 424 170T467 250L483 317Q450 348 404 348Z" />
<glyph unicode="A" glyph-name="A" horiz-adv-x="713" d="M391 675L703 0H540L489 125H224L173 0H10L322 675H391ZM357 448L273 243H441L357 448Z" />
<glyph unicode="B" glyph-name="B" horiz-adv-x="695" d="M353 686Q431 686 489 662T579 594T612 495Q612 445 586 406T519 346Q549 338 577 320T623 271T641 193Q641 137 607 91T512 16T370 -12Q326 -12 275 -9T178 1T100 15V661Q156 673 221 679T353 686ZM353
559Q289 559 239 549V387H364Q415 387 444 412T474 476Q474 516 439 537T353 559ZM239 125Q267 118 303 116T362 113Q420 113 457 136T495 201Q495 243 456 263T362 284H239V125Z" />
<glyph unicode="C" glyph-name="C" horiz-adv-x="643" d="M399 685Q462 685 508 668T588 620V480Q564 498 538 515T480 543T403 554Q343 554 294 525T216 447T187 335Q187 273 216 224T294 146T403 117Q470 117 515 137T598 188V53Q564 22 513 4T399 -15Q327 -15
263 10T150 82T73 193T45 335Q45 413 73 477T150 587T263 659T399 685Z" />
<glyph unicode="D" glyph-name="D" horiz-adv-x="760" d="M360 686Q466 686 546 643T670 523T715 342Q715 243 673 163T553 35T367 -12Q298 -12 230 -5T100 14V660Q162 670 227 678T360 686ZM363 556Q333 556 300 553T239 545V129Q269 123 301 121T363 118Q429
118 476 146T548 225T573 337Q573 401 548 450T476 527T363 556Z" />
<glyph unicode="E" glyph-name="E" horiz-adv-x="654" d="M535 398V285H239V123H574V0H100V670H574V550H239V398H535Z" />
<glyph unicode="F" glyph-name="F" horiz-adv-x="635" d="M502 376V251H239V0H100V670H557V545H239V376H502Z" />
<glyph unicode="G" glyph-name="G" horiz-adv-x="703" d="M423 363H651V90Q609 46 545 16T399 -15Q327 -15 263 10T150 82T73 193T45 335Q45 413 73 477T150 587T263 659T399 685Q462 685 508 668T588 620V480Q564 498 538 515T480 543T403 554Q343 554 294 525T216
447T187 335Q187 273 216 224T294 146T403 117Q449 117 477 128T521 152L522 263H423V363Z" />
<glyph unicode="H" glyph-name="H" horiz-adv-x="788" d="M239 670V397H550V670H688V0H550V272H239V0H100V670H239Z" />
<glyph unicode="I" glyph-name="I" horiz-adv-x="555" d="M460 125V0H95V125H208V545H95V670H460V545H347V125H460Z" />
<glyph unicode="J" glyph-name="J" horiz-adv-x="350" d="M255 672V41Q255 -44 224 -102T137 -198T11 -255L-42 -130Q116 -84 116 35V672H255Z" />
<glyph unicode="K" glyph-name="K" horiz-adv-x="715" d="M239 670V370L494 670H670L407 377L700 0H518L312 271L239 189V0H100V670H239Z" />
<glyph unicode="L" glyph-name="L" horiz-adv-x="637" d="M239 670V125H574V0H100V670H239Z" />
<glyph unicode="M" glyph-name="M" horiz-adv-x="864" d="M764 675V0H625V408L453 220H413L239 408V0H100V675H147L433 377L717 675H764Z" />
<glyph unicode="N" glyph-name="N" horiz-adv-x="786" d="M686 670V-5H636L239 404V0H100V675H150L547 260V670H686Z" />
<glyph unicode="O" glyph-name="O" horiz-adv-x="791" d="M396 685Q468 685 531 660T642 588T718 477T746 335Q746 257 719 193T643 83T531 11T396 -15Q324 -15 261 10T149 82T73 193T45 335Q45 413 72 477T148 587T260 659T396 685ZM396 554Q336 554 289 525T214
447T187 335Q187 273 214 224T288 146T396 117Q456 117 503 145T577 223T604 335Q604 398 577 447T503 525T396 554Z" />
<glyph unicode="P" glyph-name="P" horiz-adv-x="665" d="M372 670Q419 670 464 654T545 607T603 533T625 433Q625 365 591 313T499 230T375 200Q330 200 294 209T234 230V0H95V670H372ZM234 540V342Q256 333 287 327T352 320Q412 320 447 353T483 433Q483 486
443 513T349 540H234Z" />
<glyph unicode="Q" glyph-name="Q" horiz-adv-x="823" d="M396 685Q468 685 531 660T642 588T718 477T746 335Q746 256 718 191T640 79T525 8Q582 -15 645 -27T760 -39V-162Q702 -162 636 -145T507 -94T396 -15Q324 -15 261 10T149 82T73 193T45 335Q45 413 72
477T148 587T260 659T396 685ZM396 554Q336 554 289 525T214 447T187 335Q187 273 214 224T288 146T396 117Q456 117 503 145T577 223T604 335Q604 398 577 447T503 525T396 554Z" />
<glyph unicode="R" glyph-name="R" horiz-adv-x="668" d="M372 670Q419 670 464 657T545 617T603 550T625 453Q625 394 596 352T518 286T414 258L655 0H472L239 274V0H100V670H372ZM239 540V371Q263 363 292 359T352 354Q412 354 447 378T483 448Q483 497 446
518T354 540H239Z" />
<glyph unicode="S" glyph-name="S" horiz-adv-x="548" d="M283 683Q341 683 389 667T470 630V493Q434 515 393 534T300 553Q274 553 249 545T207 521T190 480Q190 447 219 430T290 396L372 362Q442 332 475 289T508 191Q508 131 474 86T382 14T254 -12Q195 -12
141 8T47 57V194Q91 162 144 140T257 118Q299 118 329 134T359 184Q359 210 335 226T281 254L178 294Q100 324 73 372T45 480Q45 541 78 586T166 657T283 683Z" />
<glyph unicode="T" glyph-name="T" horiz-adv-x="621" d="M594 670V545H380V3H242V545H28V670H594Z" />
<glyph unicode="U" glyph-name="U" horiz-adv-x="759" d="M669 672V265Q669 178 631 116T527 20T380 -14Q299 -14 233 19T129 115T90 265V672H229V273Q229 196 270 158T380 120Q447 120 489 158T531 273V672H669Z" />
<glyph unicode="V" glyph-name="V" horiz-adv-x="713" d="M703 670L391 -5H322L10 670H173L356 227L540 670H703Z" />
<glyph unicode="W" glyph-name="W" horiz-adv-x="959" d="M949 670L723 0H627L478 431L329 0H233L10 670H168L292 247L433 670H526L665 247L791 670H949Z" />
<glyph unicode="X" glyph-name="X" horiz-adv-x="685" d="M675 670L431 336L675 0H500L338 231L180 0H10L253 333L10 670H185L347 432L500 670H675Z" />
<glyph unicode="Y" glyph-name="Y" horiz-adv-x="681" d="M671 670L412 253V0H270V246L10 670H173L340 388L508 670H671Z" />
<glyph unicode="Z" glyph-name="Z" horiz-adv-x="691" d="M627 670V634L283 125H627V0H64V36L402 545H86V670H627Z" />
<glyph unicode="[" glyph-name="bracketleft" horiz-adv-x="399" d="M364 690V580H202V-90H364V-200H75V690H364Z" />
<glyph unicode="\" glyph-name="backslash" horiz-adv-x="389" d="M89 670L402 -200H304L-12 670H89Z" />
<glyph unicode="]" glyph-name="bracketright" horiz-adv-x="404" d="M40 690V580H202V-90H40V-200H329V690H40Z" />
<glyph unicode="^" glyph-name="asciicircum" horiz-adv-x="602" d="M332 670L553 320H425L295 528L178 320H50L261 670H332Z" />
<glyph unicode="_" glyph-name="underscore" horiz-adv-x="490" d="M490 -11V-131H0V-11H490Z" />
<glyph unicode="`" glyph-name="grave" horiz-adv-x="364" d="M127 715L234 640L228 573L121 648L127 715Z" />
<glyph unicode="a" glyph-name="a" horiz-adv-x="636" d="M278 518Q319 518 361 499T431 448V505H558V0H431V85Q409 44 367 15T269 -15Q208 -15 157 16T74 106T43 249Q43 333 74 393T159 485T278 518ZM304 394Q264 394 236 374T191 320T175 249Q175 192 209 152T301
112Q335 112 364 130T412 180T431 259V331Q404 360 373 377T304 394Z" />
<glyph unicode="b" glyph-name="b" horiz-adv-x="636" d="M358 518Q423 518 476 486T561 393T593 249Q593 165 562 106T479 16T367 -15Q311 -15 269 14T205 85V0H78V720H205V448Q233 480 274 499T358 518ZM332 393Q295 393 264 377T205 331V259Q204 213 222 181T271
131T335 113Q392 113 426 152T461 249Q461 287 445 319T400 372T332 393Z" />
<glyph unicode="c" glyph-name="c" horiz-adv-x="492" d="M308 518Q364 518 400 500T457 465V348Q431 367 399 380T319 393Q281 393 249 374T197 323T178 250Q178 188 218 148T319 108Q366 108 398 120T457 152V36Q436 18 400 2T308 -15Q231 -15 172 21T78 118T43
250Q43 303 62 351T118 436T202 496T308 518Z" />
<glyph unicode="d" glyph-name="d" horiz-adv-x="636" d="M558 720V0H431V85Q409 44 367 15T269 -15Q208 -15 157 16T74 106T43 249Q43 333 74 393T159 485T278 518Q319 518 361 499T431 448V720H558ZM304 393Q264 393 236 373T191 320T175 249Q175 192 209 152T301
112Q335 112 364 130T412 180T431 259V331Q404 360 373 376T304 393Z" />
<glyph unicode="e" glyph-name="e" horiz-adv-x="575" d="M299 518Q373 518 426 486T508 398T537 267V213H171Q181 162 221 131T319 100Q374 100 419 122T491 167L490 49Q466 28 419 7T314 -15Q239 -15 178 19T80 112T43 247Q43 321 76 382T167 480T299 518ZM296
407Q249 407 217 378T173 300H415Q411 354 375 380T296 407Z" />
<glyph unicode="f" glyph-name="f" horiz-adv-x="401" d="M374 505V399H243V0H116V399H39V505H116V550Q116 608 140 649T205 713T293 735Q325 735 349 728T391 709V603Q358 623 315 622Q285 621 264 603T243 542V505H374Z" />
<glyph unicode="g" glyph-name="g" horiz-adv-x="636" d="M278 518Q319 518 361 499T431 448V505H558V13Q558 -73 520 -132T419 -223T281 -255Q214 -255 171 -235T91 -189V-69Q114 -83 139 -99T197 -126T273 -137Q318 -137 354 -120T410 -73T431 -3V85Q409 44
367 15T269 -15Q208 -15 157 16T74 106T43 249Q43 333 74 393T159 485T278 518ZM304 393Q264 393 236 373T191 320T175 249Q175 192 209 153T301 113Q335 113 364 130T412 180T431 259V331Q404 360 373 376T304 393Z" />
<glyph unicode="h" glyph-name="h" horiz-adv-x="607" d="M358 518Q435 518 487 466T539 310V0H412L411 293Q411 344 387 369T319 394Q285 394 256 372T205 320V0H78V720H205V433Q228 464 267 491T358 518Z" />
<glyph unicode="i" glyph-name="i" horiz-adv-x="340" d="M184 768Q220 768 246 743T272 682Q272 648 246 622T184 596Q148 596 123 622T97 682Q97 717 122 742T184 768ZM258 505V0H131V397H50V505H258Z" />
<glyph unicode="j" glyph-name="j" horiz-adv-x="336" d="M178 768Q213 768 239 743T266 682Q266 648 240 622T178 596Q141 596 116 622T90 682Q90 717 115 742T178 768ZM250 505V6Q250 -97 203 -160T69 -255L13 -144Q66 -120 94 -86T123 1V397H42V505H250Z" />
<glyph unicode="k" glyph-name="k" horiz-adv-x="586" d="M205 720V280L411 505H570L352 286L581 0H421L268 201L205 138V0H78V720H205Z" />
<glyph unicode="l" glyph-name="l" horiz-adv-x="282" d="M205 720V0H78V720H205Z" />
<glyph unicode="m" glyph-name="m" horiz-adv-x="923" d="M205 505V441Q228 470 260 494T344 518Q397 518 440 494T507 420Q537 461 577 489T670 518Q721 518 763 495T830 425T856 310V0H729L728 293Q728 344 702 369T632 394Q599 394 575 374T530 325V0H403L402
293Q402 344 376 369T307 394Q275 394 250 375T205 329V0H78V505H205Z" />
<glyph unicode="n" glyph-name="n" horiz-adv-x="607" d="M205 505V433Q228 464 267 491T358 518Q435 518 487 466T539 310V0H412L411 293Q411 344 387 369T319 394Q285 394 256 372T205 320V0H78V505H205Z" />
<glyph unicode="o" glyph-name="o" horiz-adv-x="626" d="M313 518Q387 518 448 483T546 387T584 251Q584 176 547 116T448 21T313 -15Q240 -15 179 20T80 116T43 251Q43 326 80 386T178 482T313 518ZM313 395Q277 395 246 378T197 329T178 251Q178 205 196 173T246
125T313 108Q349 108 380 124T430 173T449 251Q449 297 430 329T380 378T313 395Z" />
<glyph unicode="p" glyph-name="p" horiz-adv-x="636" d="M367 518Q427 518 478 488T561 399T593 256Q593 172 562 111T477 18T358 -15Q316 -15 275 5T205 57V-240H78V505H205V420Q227 461 269 489T367 518ZM335 391Q301 391 271 374T223 324T205 247V174Q232
146 263 128T332 109Q371 109 400 130T445 184T461 256Q461 313 427 352T335 391Z" />
<glyph unicode="q" glyph-name="q" horiz-adv-x="636" d="M278 518Q319 518 361 499T431 448V505H558V-240H431V85Q409 44 367 15T269 -15Q208 -15 157 16T74 106T43 249Q43 333 74 393T159 485T278 518ZM304 393Q264 393 236 373T191 320T175 249Q175 192 209
153T301 113Q335 113 364 130T412 180T431 259V331Q404 360 373 376T304 393Z" />
<glyph unicode="r" glyph-name="r" horiz-adv-x="416" d="M396 363Q364 381 329 381Q285 381 256 353T205 282V0H78V505H205V410Q231 455 266 485T347 515Q374 515 396 506V363Z" />
<glyph unicode="s" glyph-name="s" horiz-adv-x="442" d="M241 518Q288 518 328 504T390 472V360Q366 376 332 391T260 406Q224 406 203 390T182 352Q182 336 194 323T240 299L297 280Q412 246 412 147Q412 100 386 64T315 6T216 -15Q165 -15 117 1T44 36V147Q63
134 90 122T146 103T199 95Q237 95 257 108T278 147Q278 166 261 177T211 199L149 221Q91 240 69 275T47 358Q47 406 71 441T140 497T241 518Z" />
<glyph unicode="t" glyph-name="t" horiz-adv-x="458" d="M261 652V505H401V399H261V181Q261 147 276 128T323 108Q350 108 369 114T406 131V30Q387 11 359 -2T287 -15Q219 -15 177 28T134 148V399H43V464Q91 481 131 528T196 652H261Z" />
<glyph unicode="u" glyph-name="u" horiz-adv-x="591" d="M524 505V204Q524 137 494 89T413 14T296 -12Q230 -12 179 14T98 88T68 204V505H196L197 227Q197 168 224 139T296 110Q340 110 367 139T395 227V505H524Z" />
<glyph unicode="v" glyph-name="v" horiz-adv-x="576" d="M566 505L327 0H246L10 505H158L285 192L418 505H566Z" />
<glyph unicode="w" glyph-name="w" horiz-adv-x="790" d="M780 505L605 0H513L395 327L277 0H184L10 505H148L241 206L350 505H441L549 206L642 505H780Z" />
<glyph unicode="x" glyph-name="x" horiz-adv-x="590" d="M573 505L375 258L580 0H421L295 176L169 0H10L215 258L17 505H167L295 343L423 505H573Z" />
<glyph unicode="y" glyph-name="y" horiz-adv-x="597" d="M158 505L302 183L442 505H587L220 -240H76L228 37L10 505H158Z" />
<glyph unicode="z" glyph-name="z" horiz-adv-x="557" d="M497 505V474L236 109H507V0H53V32L303 397H68V505H497Z" />
<glyph unicode="{" glyph-name="braceleft" horiz-adv-x="464" d="M424 690V580H380Q337 580 316 564T289 520T282 455V340Q282 309 264 285T217 245Q246 230 264 206T282 150V35Q282 -2 288 -30T316 -74T380 -90H424V-200H330Q278 -200 239 -176T177 -110T155
-18V103Q155 148 141 166T80 185V305Q127 305 141 323T155 387V508Q155 559 177 600T238 665T330 690H424Z" />
<glyph unicode="|" glyph-name="bar" horiz-adv-x="260" d="M180 705V-200H80V705H180Z" />
<glyph unicode="}" glyph-name="braceright" horiz-adv-x="464" d="M40 690V580H84Q127 580 148 564T175 520T182 455V340Q182 309 200 285T247 245Q218 230 200 206T182 150V35Q182 -2 176 -30T148 -74T84 -90H40V-200H134Q186 -200 225 -176T287 -110T309 -18V103Q309
148 323 166T384 185V305Q337 305 323 323T309 387V508Q309 559 287 600T226 665T134 690H40Z" />
<glyph unicode="~" glyph-name="asciitilde" horiz-adv-x="569" d="M509 431Q509 364 470 320T368 276Q335 276 313 285T273 307T241 328T206 338Q185 338 174 322T162 282H60Q60 350 99 393T201 437Q234 437 256 428T296 406T328 385T363 375Q385 375 396 392T407
431H509Z" />
<glyph unicode="&#xa0;" glyph-name="uni00A0" horiz-adv-x="300" />
<glyph unicode="&#xa1;" glyph-name="exclamdown" horiz-adv-x="320" d="M216 -174V266H104V-174H216ZM160 354Q193 354 216 377T240 434Q240 467 217 490T160 514Q127 514 104 491T80 434Q80 401 103 378T160 354Z" />
<glyph unicode="&#xa2;" glyph-name="cent" horiz-adv-x="492" d="M353 580V514Q390 507 415 493T457 465L456 348Q436 363 411 374T353 390V110Q386 114 411 125T457 152V36Q440 22 415 9T353 -11V-80H258V-11Q195 1 147 39T70 131T42 249Q42 313 70 368T146
462T258 513V580H353ZM178 250Q178 205 199 171T258 120V379Q223 362 201 328T178 250Z" />
<glyph unicode="&#xa3;" glyph-name="sterling" horiz-adv-x="546" d="M434 384V279H295V258Q295 215 280 182T241 128H496V0H80V103Q118 115 139 158T161 249V279H81V384H161V449Q161 526 193 577T275 654T382 680Q423 680 457 667T509 636V513Q488 530 458 542T396
554Q359 553 327 523T295 432V384H434Z" />
<glyph unicode="&#xa4;" glyph-name="currency" horiz-adv-x="534" d="M267 439Q316 439 361 414L425 478L490 413L429 351Q443 330 450 306T458 255Q458 228 451 204T430 159L492 97L423 32L360 95Q316 71 267 71Q218 71 174 95L111 32L43 97L104 158Q91 179
84 203T76 255Q76 282 83 306T105 351L44 413L110 478L174 414Q218 439 267 439ZM267 341Q231 341 204 318T177 255Q177 214 204 192T267 169Q303 169 330 191T357 255Q357 295 330 318T267 341Z" />
<glyph unicode="&#xa5;" glyph-name="yen" horiz-adv-x="681" d="M559 205V125H412V0H270V125H123V205H270V246L267 250H123V330H218L10 670H173L340 388L508 670H671L459 330H559V250H412V205H559Z" />
<glyph unicode="&#xa6;" glyph-name="brokenbar" horiz-adv-x="260" d="M180 705V289H80V705H180ZM180 216V-200H80V216H180Z" />
<glyph unicode="&#xa7;" glyph-name="section" horiz-adv-x="548" d="M508 -34Q508 -94 474 -139T382 -211T254 -237Q195 -237 141 -217T47 -168V-31Q91 -63 144 -85T257 -107Q299 -107 329 -91T359 -41Q359 -15 335 1T281 29L178 69Q100 99 73 145T45 250Q45
284 58 310T90 357Q65 382 55 412T45 480Q45 541 78 586T166 657T283 683Q341 683 389 667T470 630V493Q434 515 393 534T300 553Q274 553 249 545T207 521T190 480Q190 447 219 430T290 396L372 362Q442 332 475 292T508 196Q508 158 495 129T459 75Q508 32 508
-34ZM290 161L338 141Q359 157 359 184Q359 214 335 232T281 262L207 292Q190 272 190 247Q190 214 219 196T290 161Z" />
<glyph unicode="&#xa8;" glyph-name="dieresis" horiz-adv-x="509" d="M363 722Q391 722 412 702T433 653Q433 624 412 604T363 583Q334 583 314 603T294 653Q294 681 314 701T363 722ZM153 722Q181 722 202 702T223 653Q223 624 202 604T153 583Q124 583 104
603T84 653Q84 681 104 701T153 722Z" />
<glyph unicode="&#xa9;" glyph-name="copyright" horiz-adv-x="874" d="M437 723Q521 723 592 693T717 609T799 485T829 335Q829 255 800 185T717 62T593 -22T437 -53Q353 -53 282 -23T157 61T75 185T45 335Q45 415 74 485T157 608T281 692T437 723ZM437 635Q349
635 283 597T179 491T142 335Q142 247 179 180T282 74T437 36Q525 36 591 74T695 179T732 335Q732 423 695 490T592 596T437 635ZM459 555Q505 555 534 541T580 512V417Q559 432 533 442T468 453Q421 453 387 420T353 337Q353 287 385 255T468 222Q506 222 532
232T580 258V163Q563 149 534 136T459 122Q397 122 349 152T272 230T244 337Q244 395 272 444T348 524T459 555Z" />
<glyph unicode="&#xaa;" glyph-name="ordfeminine" horiz-adv-x="393" d="M183 681Q208 681 232 670T274 640V673H356V373H274V423Q261 399 236 382T178 364Q119 364 79 404T38 521Q38 596 80 638T183 681ZM198 602Q163 602 143 578T122 521Q122 487 142 466T197
444Q227 444 250 465T274 526V570Q243 602 198 602Z" />
<glyph unicode="&#xab;" glyph-name="guillemotleft" horiz-adv-x="605" d="M290 32L55 227V265L290 468V339L180 247L290 161V32ZM525 32L290 227V265L525 468V339L415 247L525 161V32Z" />
<glyph unicode="&#xac;" glyph-name="logicalnot" horiz-adv-x="600" d="M461 373V132H347V253H80V373H461Z" />
<glyph unicode="&#xad;" glyph-name="uni00AD" horiz-adv-x="421" d="M361 318V198H60V318H361Z" />
<glyph unicode="&#xae;" glyph-name="registered" horiz-adv-x="874" d="M437 723Q521 723 592 693T717 609T799 485T829 335Q829 255 800 185T717 62T593 -22T437 -53Q353 -53 282 -23T157 61T75 185T45 335Q45 415 74 485T157 608T281 692T437 723ZM437 635Q349
635 283 597T179 491T142 335Q142 247 179 180T282 74T437 36Q525 36 591 74T695 179T732 335Q732 423 695 490T592 596T437 635ZM469 533Q506 533 540 520T596 478T619 405Q619 352 581 322T494 289L636 136H528L389 298V136H307V533H469ZM389 456V356Q404 351
421 349T457 346Q492 346 513 360T534 402Q534 431 512 443T458 456H389Z" />
<glyph unicode="&#xaf;" glyph-name="overscore" horiz-adv-x="550" d="M455 714V619H95V714H455Z" />
<glyph unicode="&#xb0;" glyph-name="degree" horiz-adv-x="428" d="M215 685Q265 685 303 662T364 599T386 513Q386 466 364 427T304 364T215 340Q165 340 126 363T65 426T43 513Q43 560 65 599T126 661T215 685ZM215 587Q184 587 163 565T142 513Q142 482 163
460T215 438Q245 438 266 460T287 513Q287 542 266 564T215 587Z" />
<glyph unicode="&#xb1;" glyph-name="plusminus" horiz-adv-x="531" d="M320 504V394H450V284H320V173H210V284H80V394H210V504H320ZM451 110V0H80V110H451Z" />
<glyph unicode="&#xb2;" glyph-name="uni00B2" horiz-adv-x="280" d="M136 678Q180 678 209 653T238 588Q238 558 229 537T200 493T150 435H240V373H40V403Q104 472 134 508T165 570Q165 610 119 610Q99 610 80 599T47 575V648Q60 660 83 669T136 678Z" />
<glyph unicode="&#xb3;" glyph-name="uni00B3" horiz-adv-x="267" d="M118 677Q165 677 195 653T225 592Q225 561 207 544T168 523Q189 519 208 502T227 454Q227 415 196 390T118 365Q94 365 73 372T40 389V454Q54 445 70 436T107 427Q127 427 140 434T153 461Q153
479 138 486T103 494H81V549H105Q125 549 139 554T153 576Q153 593 139 602T105 612Q88 612 74 606T48 588V652Q60 663 78 670T118 677Z" />
<glyph unicode="&#xb4;" glyph-name="acute" horiz-adv-x="339" d="M314 715L177 573H75L180 715H314Z" />
<glyph unicode="&#xb5;" glyph-name="uni00B5" horiz-adv-x="591" d="M524 505V0H397V53Q384 20 356 4T293 -12Q261 -13 235 0T195 40V-240H68V505H196L197 227Q197 168 224 139T296 110Q340 110 367 139T395 227V505H524Z" />
<glyph unicode="&#xb6;" glyph-name="paragraph" horiz-adv-x="662" d="M562 -210H490V579H405V-210H330V262H280Q219 262 164 283T75 349T40 466Q40 540 74 585T164 650T280 670H562V-210Z" />
<glyph unicode="&#xb7;" glyph-name="middot" horiz-adv-x="320" d="M160 423Q193 423 216 400T240 343Q240 310 217 287T160 263Q127 263 104 286T80 343Q80 376 103 399T160 423Z" />
<glyph unicode="&#xb8;" glyph-name="cedilla" horiz-adv-x="351" d="M187 2L183 -58Q223 -55 249 -78T276 -139Q276 -184 245 -212T162 -240Q147 -240 123 -234T83 -215L90 -150Q105 -159 122 -166T162 -174Q175 -174 186 -167T197 -145Q197 -133 188 -126T163
-119Q155 -119 148 -121T130 -128L110 -116L123 2H187Z" />
<glyph unicode="&#xb9;" glyph-name="uni00B9" horiz-adv-x="278" d="M238 437V373H40V437H106V571Q93 560 77 555T43 545V617Q96 631 126 670H177V437H238Z" />
<glyph unicode="&#xba;" glyph-name="ordmasculine" horiz-adv-x="392" d="M196 677Q239 677 275 656T333 600T355 521Q355 477 333 442T275 386T196 365Q153 365 117 385T60 441T38 521Q38 564 59 599T117 656T196 677ZM196 600Q167 600 144 581T121 521Q121
480 144 461T196 441Q225 441 248 460T271 521Q271 561 248 580T196 600Z" />
<glyph unicode="&#xbb;" glyph-name="guillemotright" horiz-adv-x="605" d="M315 468L550 273V235L315 32V161L425 253L315 339V468ZM80 468L315 273V235L80 32V161L190 253L80 339V468Z" />
<glyph unicode="&#xbc;" glyph-name="onequarter" horiz-adv-x="664" d="M241 437V373H43V437H109V571Q96 560 80 555T46 545V617Q99 631 129 670H180V437H241ZM639 670L144 0H46L538 670H639ZM549 297V126H584V66H549V0H482V66H357V102Q394 142 431 189T501 297H549ZM482
180Q471 164 464 154T442 126H482V180Z" />
<glyph unicode="&#xbd;" glyph-name="onehalf" horiz-adv-x="693" d="M253 437V373H55V437H121V571Q108 560 92 555T58 545V617Q111 631 141 670H192V437H253ZM643 670L148 0H50L542 670H643ZM533 305Q577 305 606 280T635 215Q635 185 626 164T597 120T547 62H637V0H437V30Q501
99 531 135T562 197Q562 237 516 237Q496 237 477 226T444 202V275Q457 287 480 296T533 305Z" />
<glyph unicode="&#xbe;" glyph-name="threequarters" horiz-adv-x="684" d="M123 677Q170 677 200 653T230 592Q230 561 212 544T173 523Q194 519 213 502T232 454Q232 415 201 390T123 365Q99 365 78 372T45 389V454Q59 445 75 436T112 427Q132 427 145 434T158
461Q158 479 143 486T108 494H86V549H110Q130 549 144 554T158 576Q158 593 144 602T110 612Q93 612 79 606T53 588V652Q65 663 83 670T123 677ZM639 670L144 0H46L538 670H639ZM551 297V126H586V66H551V0H484V66H359V102Q396 142 433 189T503 297H551ZM484 180Q473
164 466 154T444 126H484V180Z" />
<glyph unicode="&#xbf;" glyph-name="questiondown" horiz-adv-x="585" d="M310 -189Q250 -189 198 -165T113 -94T80 16Q80 55 98 84T144 136T199 178T244 216T261 257L260 278H387V238Q387 216 370 196T326 157T274 117T230 75T212 29Q212 -12 244 -38T330 -64Q382
-64 425 -45T505 17V-115Q474 -147 425 -168T310 -189ZM319 354Q286 354 263 377T239 434Q239 467 262 490T319 514Q352 514 375 491T399 434Q399 401 376 378T319 354Z" />
<glyph unicode="&#xc0;" glyph-name="Agrave" horiz-adv-x="713" d="M391 675L703 0H540L489 125H224L173 0H10L322 675H391ZM357 448L273 243H441L357 448ZM249 880L356 805L350 738L243 813L249 880Z" />
<glyph unicode="&#xc1;" glyph-name="Aacute" horiz-adv-x="713" d="M391 675L703 0H540L489 125H224L173 0H10L322 675H391ZM357 448L273 243H441L357 448ZM527 880L390 738H288L393 880H527Z" />
<glyph unicode="&#xc2;" glyph-name="Acircumflex" horiz-adv-x="713" d="M391 675L703 0H540L489 125H224L173 0H10L322 675H391ZM357 448L273 243H441L357 448ZM393 880L523 736H416L356 804L296 736H189L319 880H393Z" />
<glyph unicode="&#xc3;" glyph-name="Atilde" horiz-adv-x="713" d="M391 675L703 0H540L489 125H224L173 0H10L322 675H391ZM357 448L273 243H441L357 448ZM538 860Q538 803 505 771T422 739Q387 739 367 750T333 773T301 785Q284 785 275 773T266 743H185Q185
800 218 832T301 864Q336 864 356 853T390 830T423 818Q440 818 448 830T457 860H538Z" />
<glyph unicode="&#xc4;" glyph-name="Adieresis" horiz-adv-x="713" d="M391 675L703 0H540L489 125H224L173 0H10L322 675H391ZM357 448L273 243H441L357 448ZM461 887Q489 887 510 867T531 818Q531 789 510 769T461 748Q432 748 412 768T392 818Q392 846 412
866T461 887ZM251 887Q279 887 300 867T321 818Q321 789 300 769T251 748Q222 748 202 768T182 818Q182 846 202 866T251 887Z" />
<glyph unicode="&#xc5;" glyph-name="Aring" horiz-adv-x="713" d="M391 675L703 0H540L489 125H224L173 0H10L322 675H391ZM357 448L273 243H441L357 448ZM356 894Q394 894 419 869T445 807Q445 771 420 746T356 720Q318 720 292 745T266 807Q266 843 292 868T356
894ZM356 846Q340 846 328 835T316 807Q316 791 328 780T356 768Q372 768 383 779T395 807Q395 823 384 834T356 846Z" />
<glyph unicode="&#xc6;" glyph-name="AE" horiz-adv-x="1082" d="M963 398V285H667V123H1002V0H528V163H278L163 0H10L493 670H1002V550H667V398H963ZM353 270H528V518L353 270Z" />
<glyph unicode="&#xc7;" glyph-name="Ccedilla" horiz-adv-x="643" d="M399 685Q462 685 508 668T588 620V480Q564 498 538 515T480 543T403 554Q343 554 294 525T216 447T187 335Q187 273 216 224T294 146T403 117Q470 117 515 137T598 188V53Q564 22 513 4T399
-15Q327 -15 263 10T150 82T73 193T45 335Q45 413 73 477T150 587T263 659T399 685ZM413 2L409 -58Q449 -55 475 -78T502 -139Q502 -184 471 -212T388 -240Q373 -240 349 -234T309 -215L316 -150Q331 -159 348 -166T388 -174Q401 -174 412 -167T423 -145Q423 -133
414 -126T389 -119Q381 -119 374 -121T356 -128L336 -116L349 2H413Z" />
<glyph unicode="&#xc8;" glyph-name="Egrave" horiz-adv-x="654" d="M535 398V285H239V123H574V0H100V670H574V550H239V398H535ZM230 880L337 805L331 738L224 813L230 880Z" />
<glyph unicode="&#xc9;" glyph-name="Eacute" horiz-adv-x="654" d="M535 398V285H239V123H574V0H100V670H574V550H239V398H535ZM508 880L371 738H269L374 880H508Z" />
<glyph unicode="&#xca;" glyph-name="Ecircumflex" horiz-adv-x="654" d="M535 398V285H239V123H574V0H100V670H574V550H239V398H535ZM374 880L504 736H397L337 804L277 736H170L300 880H374Z" />
<glyph unicode="&#xcb;" glyph-name="Edieresis" horiz-adv-x="654" d="M535 398V285H239V123H574V0H100V670H574V550H239V398H535ZM443 887Q471 887 492 867T513 818Q513 789 492 769T443 748Q414 748 394 768T374 818Q374 846 394 866T443 887ZM233 887Q261
887 282 867T303 818Q303 789 282 769T233 748Q204 748 184 768T164 818Q164 846 184 866T233 887Z" />
<glyph unicode="&#xcc;" glyph-name="Igrave" horiz-adv-x="555" d="M460 125V0H95V125H208V545H95V670H460V545H347V125H460ZM173 880L280 805L274 738L167 813L173 880Z" />
<glyph unicode="&#xcd;" glyph-name="Iacute" horiz-adv-x="555" d="M460 125V0H95V125H208V545H95V670H460V545H347V125H460ZM451 880L314 738H212L317 880H451Z" />
<glyph unicode="&#xce;" glyph-name="Icircumflex" horiz-adv-x="555" d="M460 125V0H95V125H208V545H95V670H460V545H347V125H460ZM317 880L447 736H340L280 804L220 736H113L243 880H317Z" />
<glyph unicode="&#xcf;" glyph-name="Idieresis" horiz-adv-x="555" d="M460 125V0H95V125H208V545H95V670H460V545H347V125H460ZM385 887Q413 887 434 867T455 818Q455 789 434 769T385 748Q356 748 336 768T316 818Q316 846 336 866T385 887ZM175 887Q203 887
224 867T245 818Q245 789 224 769T175 748Q146 748 126 768T106 818Q106 846 126 866T175 887Z" />
<glyph unicode="&#xd0;" glyph-name="Eth" horiz-adv-x="760" d="M360 686Q466 686 546 643T670 523T715 342Q715 243 673 163T553 35T367 -12Q298 -12 230 -5T100 14V660Q162 670 227 678T360 686ZM363 556Q333 556 300 553T239 545V129Q269 123 301 121T363
118Q429 118 476 146T548 225T573 337Q573 401 548 450T476 527T363 556ZM576 397V277H275V397H576Z" />
<glyph unicode="&#xd1;" glyph-name="Ntilde" horiz-adv-x="786" d="M686 670V-5H636L239 404V0H100V675H150L547 260V670H686ZM574 860Q574 803 541 771T458 739Q423 739 403 750T369 773T337 785Q320 785 311 773T302 743H221Q221 800 254 832T337 864Q372 864
392 853T426 830T459 818Q476 818 484 830T493 860H574Z" />
<glyph unicode="&#xd2;" glyph-name="Ograve" horiz-adv-x="791" d="M396 685Q468 685 531 660T642 588T718 477T746 335Q746 257 719 193T643 83T531 11T396 -15Q324 -15 261 10T149 82T73 193T45 335Q45 413 72 477T148 587T260 659T396 685ZM396 554Q336 554
289 525T214 447T187 335Q187 273 214 224T288 146T396 117Q456 117 503 145T577 223T604 335Q604 398 577 447T503 525T396 554ZM289 880L396 805L390 738L283 813L289 880Z" />
<glyph unicode="&#xd3;" glyph-name="Oacute" horiz-adv-x="791" d="M396 685Q468 685 531 660T642 588T718 477T746 335Q746 257 719 193T643 83T531 11T396 -15Q324 -15 261 10T149 82T73 193T45 335Q45 413 72 477T148 587T260 659T396 685ZM396 554Q336 554
289 525T214 447T187 335Q187 273 214 224T288 146T396 117Q456 117 503 145T577 223T604 335Q604 398 577 447T503 525T396 554ZM567 880L430 738H328L433 880H567Z" />
<glyph unicode="&#xd4;" glyph-name="Ocircumflex" horiz-adv-x="791" d="M396 685Q468 685 531 660T642 588T718 477T746 335Q746 257 719 193T643 83T531 11T396 -15Q324 -15 261 10T149 82T73 193T45 335Q45 413 72 477T148 587T260 659T396 685ZM396 554Q336
554 289 525T214 447T187 335Q187 273 214 224T288 146T396 117Q456 117 503 145T577 223T604 335Q604 398 577 447T503 525T396 554ZM433 880L563 736H456L396 804L336 736H229L359 880H433Z" />
<glyph unicode="&#xd5;" glyph-name="Otilde" horiz-adv-x="791" d="M396 685Q468 685 531 660T642 588T718 477T746 335Q746 257 719 193T643 83T531 11T396 -15Q324 -15 261 10T149 82T73 193T45 335Q45 413 72 477T148 587T260 659T396 685ZM396 554Q336 554
289 525T214 447T187 335Q187 273 214 224T288 146T396 117Q456 117 503 145T577 223T604 335Q604 398 577 447T503 525T396 554ZM578 860Q578 803 545 771T462 739Q427 739 407 750T373 773T341 785Q324 785 315 773T306 743H225Q225 800 258 832T341 864Q376
864 396 853T430 830T463 818Q480 818 488 830T497 860H578Z" />
<glyph unicode="&#xd6;" glyph-name="Odieresis" horiz-adv-x="791" d="M396 685Q468 685 531 660T642 588T718 477T746 335Q746 257 719 193T643 83T531 11T396 -15Q324 -15 261 10T149 82T73 193T45 335Q45 413 72 477T148 587T260 659T396 685ZM396 554Q336
554 289 525T214 447T187 335Q187 273 214 224T288 146T396 117Q456 117 503 145T577 223T604 335Q604 398 577 447T503 525T396 554ZM501 887Q529 887 550 867T571 818Q571 789 550 769T501 748Q472 748 452 768T432 818Q432 846 452 866T501 887ZM291 887Q319
887 340 867T361 818Q361 789 340 769T291 748Q262 748 242 768T222 818Q222 846 242 866T291 887Z" />
<glyph unicode="&#xd7;" glyph-name="multiply" horiz-adv-x="550" d="M168 494L263 398L358 494L443 409L348 313L443 218L358 133L263 228L167 132L82 217L178 313L83 409L168 494Z" />
<glyph unicode="&#xd8;" glyph-name="Oslash" horiz-adv-x="791" d="M396 685Q450 685 500 670T592 628L640 685L707 635L656 574Q698 529 722 468T746 335Q746 257 719 193T643 83T531 11T396 -15Q344 -15 296 -2T207 37L164 -15L100 35L143 87Q98 133 72 196T45
335Q45 413 72 477T148 587T260 659T396 685ZM396 554Q336 554 289 525T214 447T187 335Q187 294 199 259T233 195L505 523Q456 554 396 554ZM604 335Q604 372 594 405T565 466L295 142Q341 117 396 117Q456 117 503 145T577 223T604 335Z" />
<glyph unicode="&#xd9;" glyph-name="Ugrave" horiz-adv-x="759" d="M669 672V265Q669 178 631 116T527 20T380 -14Q299 -14 233 19T129 115T90 265V672H229V273Q229 196 270 158T380 120Q447 120 489 158T531 273V672H669ZM273 880L380 805L374 738L267 813L273 880Z" />
<glyph unicode="&#xda;" glyph-name="Uacute" horiz-adv-x="759" d="M669 672V265Q669 178 631 116T527 20T380 -14Q299 -14 233 19T129 115T90 265V672H229V273Q229 196 270 158T380 120Q447 120 489 158T531 273V672H669ZM551 880L414 738H312L417 880H551Z" />
<glyph unicode="&#xdb;" glyph-name="Ucircumflex" horiz-adv-x="759" d="M669 672V265Q669 178 631 116T527 20T380 -14Q299 -14 233 19T129 115T90 265V672H229V273Q229 196 270 158T380 120Q447 120 489 158T531 273V672H669ZM417 880L547 736H440L380 804L320
736H213L343 880H417Z" />
<glyph unicode="&#xdc;" glyph-name="Udieresis" horiz-adv-x="759" d="M669 672V265Q669 178 631 116T527 20T380 -14Q299 -14 233 19T129 115T90 265V672H229V273Q229 196 270 158T380 120Q447 120 489 158T531 273V672H669ZM485 887Q513 887 534 867T555 818Q555
789 534 769T485 748Q456 748 436 768T416 818Q416 846 436 866T485 887ZM275 887Q303 887 324 867T345 818Q345 789 324 769T275 748Q246 748 226 768T206 818Q206 846 226 866T275 887Z" />
<glyph unicode="&#xdd;" glyph-name="Yacute" horiz-adv-x="681" d="M671 670L412 253V0H270V246L10 670H173L340 388L508 670H671ZM512 880L375 738H273L378 880H512Z" />
<glyph unicode="&#xde;" glyph-name="Thorn" horiz-adv-x="659" d="M227 670V556H393Q451 556 502 529T586 453T619 343Q619 280 589 231T504 153T378 124Q334 124 298 130T227 148V0H100V670H227ZM353 436H227V269Q257 252 297 246T368 239Q428 239 457 267T487
343Q487 388 448 412T353 436Z" />
<glyph unicode="&#xdf;" glyph-name="germandbls" horiz-adv-x="691" d="M277 725Q333 725 385 702T470 634T504 527Q504 494 491 472T461 433T431 402T418 368Q418 343 442 332T495 308L549 283Q600 260 630 227T661 145Q661 96 633 61T560 7T466 -12Q413 -12
370 2T296 34V144Q328 125 372 111T465 96Q498 96 521 107T544 144Q544 159 530 171T497 193T465 206L397 231Q358 245 329 272T300 351Q300 381 310 404T335 446T361 485T372 526Q372 568 345 593T281 617Q243 616 217 593T190 510V0H63V529Q63 596 94 639T175
703T277 725Z" />
<glyph unicode="&#xe0;" glyph-name="agrave" horiz-adv-x="636" d="M278 518Q319 518 361 499T431 448V505H558V0H431V85Q409 44 367 15T269 -15Q208 -15 157 16T74 106T43 249Q43 333 74 393T159 485T278 518ZM304 394Q264 394 236 374T191 320T175 249Q175
192 209 152T301 112Q335 112 364 130T412 180T431 259V331Q404 360 373 377T304 394ZM210 715L317 640L311 573L204 648L210 715Z" />
<glyph unicode="&#xe1;" glyph-name="aacute" horiz-adv-x="636" d="M278 518Q319 518 361 499T431 448V505H558V0H431V85Q409 44 367 15T269 -15Q208 -15 157 16T74 106T43 249Q43 333 74 393T159 485T278 518ZM304 394Q264 394 236 374T191 320T175 249Q175
192 209 152T301 112Q335 112 364 130T412 180T431 259V331Q404 360 373 377T304 394ZM488 715L351 573H249L354 715H488Z" />
<glyph unicode="&#xe2;" glyph-name="acircumflex" horiz-adv-x="636" d="M278 518Q319 518 361 499T431 448V505H558V0H431V85Q409 44 367 15T269 -15Q208 -15 157 16T74 106T43 249Q43 333 74 393T159 485T278 518ZM304 394Q264 394 236 374T191 320T175 249Q175
192 209 152T301 112Q335 112 364 130T412 180T431 259V331Q404 360 373 377T304 394ZM354 715L484 571H377L317 639L257 571H150L280 715H354Z" />
<glyph unicode="&#xe3;" glyph-name="atilde" horiz-adv-x="636" d="M278 518Q319 518 361 499T431 448V505H558V0H431V85Q409 44 367 15T269 -15Q208 -15 157 16T74 106T43 249Q43 333 74 393T159 485T278 518ZM304 394Q264 394 236 374T191 320T175 249Q175
192 209 152T301 112Q335 112 364 130T412 180T431 259V331Q404 360 373 377T304 394ZM500 951Q500 894 467 862T384 830Q349 830 329 841T295 864T263 876Q246 876 237 864T228 834H147Q147 891 180 923T263 955Q298 955 318 944T352 921T385 909Q402 909 410
921T419 951H500Z" />
<glyph unicode="&#xe4;" glyph-name="adieresis" horiz-adv-x="636" d="M278 518Q319 518 361 499T431 448V505H558V0H431V85Q409 44 367 15T269 -15Q208 -15 157 16T74 106T43 249Q43 333 74 393T159 485T278 518ZM304 394Q264 394 236 374T191 320T175 249Q175
192 209 152T301 112Q335 112 364 130T412 180T431 259V331Q404 360 373 377T304 394ZM423 722Q451 722 472 702T493 653Q493 624 472 604T423 583Q394 583 374 603T354 653Q354 681 374 701T423 722ZM213 722Q241 722 262 702T283 653Q283 624 262 604T213 583Q184
583 164 603T144 653Q144 681 164 701T213 722Z" />
<glyph unicode="&#xe5;" glyph-name="aring" horiz-adv-x="636" d="M278 518Q319 518 361 499T431 448V505H558V0H431V85Q409 44 367 15T269 -15Q208 -15 157 16T74 106T43 249Q43 333 74 393T159 485T278 518ZM304 394Q264 394 236 374T191 320T175 249Q175 192
209 152T301 112Q335 112 364 130T412 180T431 259V331Q404 360 373 377T304 394ZM317 729Q355 729 380 704T406 642Q406 606 381 581T317 555Q279 555 253 580T227 642Q227 678 253 703T317 729ZM317 681Q301 681 289 670T277 642Q277 626 289 615T317 603Q333
603 344 614T356 642Q356 658 345 669T317 681Z" />
<glyph unicode="&#xe6;" glyph-name="ae" horiz-adv-x="1004" d="M728 518Q802 518 855 486T937 398T966 267V213H600Q610 162 650 131T748 100Q803 100 848 122T920 167L919 49Q895 28 848 7T743 -15Q668 -15 607 19T509 112T472 247Q472 321 505 382T596 480T728
518ZM725 407Q678 407 646 378T602 300H844Q840 354 804 380T725 407ZM278 518Q319 518 361 499T431 448V505H558V0H431V85Q409 44 367 15T269 -15Q208 -15 157 16T74 106T43 249Q43 333 74 393T159 485T278 518ZM304 394Q264 394 236 374T191 320T175 249Q175
192 209 152T301 112Q335 112 364 130T412 180T431 259V331Q404 360 373 377T304 394Z" />
<glyph unicode="&#xe7;" glyph-name="ccedilla" horiz-adv-x="492" d="M308 518Q364 518 400 500T457 465V348Q431 367 399 380T319 393Q281 393 249 374T197 323T178 250Q178 188 218 148T319 108Q366 108 398 120T457 152V36Q436 18 400 2T308 -15Q231 -15 172
21T78 118T43 250Q43 303 62 351T118 436T202 496T308 518ZM322 2L318 -58Q358 -55 384 -78T411 -139Q411 -184 380 -212T297 -240Q282 -240 258 -234T218 -215L225 -150Q240 -159 257 -166T297 -174Q310 -174 321 -167T332 -145Q332 -133 323 -126T298 -119Q290
-119 283 -121T265 -128L245 -116L258 2H322Z" />
<glyph unicode="&#xe8;" glyph-name="egrave" horiz-adv-x="575" d="M299 518Q373 518 426 486T508 398T537 267V213H171Q181 162 221 131T319 100Q374 100 419 122T491 167L490 49Q466 28 419 7T314 -15Q239 -15 178 19T80 112T43 247Q43 321 76 382T167 480T299
518ZM296 407Q249 407 217 378T173 300H415Q411 354 375 380T296 407ZM197 715L304 640L298 573L191 648L197 715Z" />
<glyph unicode="&#xe9;" glyph-name="eacute" horiz-adv-x="575" d="M299 518Q373 518 426 486T508 398T537 267V213H171Q181 162 221 131T319 100Q374 100 419 122T491 167L490 49Q466 28 419 7T314 -15Q239 -15 178 19T80 112T43 247Q43 321 76 382T167 480T299
518ZM296 407Q249 407 217 378T173 300H415Q411 354 375 380T296 407ZM475 715L338 573H236L341 715H475Z" />
<glyph unicode="&#xea;" glyph-name="ecircumflex" horiz-adv-x="575" d="M299 518Q373 518 426 486T508 398T537 267V213H171Q181 162 221 131T319 100Q374 100 419 122T491 167L490 49Q466 28 419 7T314 -15Q239 -15 178 19T80 112T43 247Q43 321 76 382T167
480T299 518ZM296 407Q249 407 217 378T173 300H415Q411 354 375 380T296 407ZM341 715L471 571H364L304 639L244 571H137L267 715H341Z" />
<glyph unicode="&#xeb;" glyph-name="edieresis" horiz-adv-x="575" d="M299 518Q373 518 426 486T508 398T537 267V213H171Q181 162 221 131T319 100Q374 100 419 122T491 167L490 49Q466 28 419 7T314 -15Q239 -15 178 19T80 112T43 247Q43 321 76 382T167 480T299
518ZM296 407Q249 407 217 378T173 300H415Q411 354 375 380T296 407ZM409 722Q437 722 458 702T479 653Q479 624 458 604T409 583Q380 583 360 603T340 653Q340 681 360 701T409 722ZM199 722Q227 722 248 702T269 653Q269 624 248 604T199 583Q170 583 150 603T130
653Q130 681 150 701T199 722Z" />
<glyph unicode="&#xec;" glyph-name="igrave" horiz-adv-x="338" d="M261 505V0H134V397H53V505H261ZM333 715L440 640L434 573L327 648L333 715Z" />
<glyph unicode="&#xed;" glyph-name="iacute" horiz-adv-x="338" d="M261 505V0H134V397H53V505H261ZM355 715L218 573H116L221 715H355Z" />
<glyph unicode="&#xee;" glyph-name="icircumflex" horiz-adv-x="307" d="M450 715L580 571H473L413 639L353 571H246L376 715H450ZM287 505V0H160V397H79V505H287Z" />
<glyph unicode="&#xef;" glyph-name="idieresis" horiz-adv-x="338" d="M261 505V0H134V397H53V505H261ZM546 722Q574 722 595 702T616 653Q616 624 595 604T546 583Q517 583 497 603T477 653Q477 681 497 701T546 722ZM336 722Q364 722 385 702T406 653Q406 624
385 604T336 583Q307 583 287 603T267 653Q267 681 287 701T336 722Z" />
<glyph unicode="&#xf0;" glyph-name="eth" horiz-adv-x="613" d="M328 718Q370 685 405 651L494 695L526 633L454 598Q510 529 540 451T570 284Q570 194 535 127T441 22T308 -15Q234 -15 174 20T79 115T43 250Q43 324 78 382T172 472T303 505Q339 505 376 486T447
430Q437 461 415 493T365 554L287 516L255 576L313 605Q298 617 285 627T260 647L328 718ZM313 395Q277 395 246 378T197 329T178 251Q178 205 196 173T246 125T313 108Q349 108 380 124T430 173T449 251Q449 297 430 329T380 378T313 395Z" />
<glyph unicode="&#xf1;" glyph-name="ntilde" horiz-adv-x="607" d="M205 505V433Q228 464 267 491T358 518Q435 518 487 466T539 310V0H412L411 293Q411 344 387 369T319 394Q285 394 256 372T205 320V0H78V505H205ZM502 953Q502 896 469 864T386 832Q351 832
331 843T297 866T265 878Q248 878 239 866T230 836H149Q149 893 182 925T265 957Q300 957 320 946T354 923T387 911Q404 911 412 923T421 953H502Z" />
<glyph unicode="&#xf2;" glyph-name="ograve" horiz-adv-x="626" d="M313 518Q387 518 448 483T546 387T584 251Q584 176 547 116T448 21T313 -15Q240 -15 179 20T80 116T43 251Q43 326 80 386T178 482T313 518ZM313 395Q277 395 246 378T197 329T178 251Q178
205 196 173T246 125T313 108Q349 108 380 124T430 173T449 251Q449 297 430 329T380 378T313 395ZM206 715L313 640L307 573L200 648L206 715Z" />
<glyph unicode="&#xf3;" glyph-name="oacute" horiz-adv-x="626" d="M313 518Q387 518 448 483T546 387T584 251Q584 176 547 116T448 21T313 -15Q240 -15 179 20T80 116T43 251Q43 326 80 386T178 482T313 518ZM313 395Q277 395 246 378T197 329T178 251Q178
205 196 173T246 125T313 108Q349 108 380 124T430 173T449 251Q449 297 430 329T380 378T313 395ZM484 715L347 573H245L350 715H484Z" />
<glyph unicode="&#xf4;" glyph-name="ocircumflex" horiz-adv-x="626" d="M313 518Q387 518 448 483T546 387T584 251Q584 176 547 116T448 21T313 -15Q240 -15 179 20T80 116T43 251Q43 326 80 386T178 482T313 518ZM313 395Q277 395 246 378T197 329T178 251Q178
205 196 173T246 125T313 108Q349 108 380 124T430 173T449 251Q449 297 430 329T380 378T313 395ZM350 715L480 571H373L313 639L253 571H146L276 715H350Z" />
<glyph unicode="&#xf5;" glyph-name="otilde" horiz-adv-x="626" d="M313 518Q387 518 448 483T546 387T584 251Q584 176 547 116T448 21T313 -15Q240 -15 179 20T80 116T43 251Q43 326 80 386T178 482T313 518ZM313 395Q277 395 246 378T197 329T178 251Q178
205 196 173T246 125T313 108Q349 108 380 124T430 173T449 251Q449 297 430 329T380 378T313 395ZM496 951Q496 894 463 862T380 830Q345 830 325 841T291 864T259 876Q242 876 233 864T224 834H143Q143 891 176 923T259 955Q294 955 314 944T348 921T381 909Q398
909 406 921T415 951H496Z" />
<glyph unicode="&#xf6;" glyph-name="odieresis" horiz-adv-x="626" d="M313 518Q387 518 448 483T546 387T584 251Q584 176 547 116T448 21T313 -15Q240 -15 179 20T80 116T43 251Q43 326 80 386T178 482T313 518ZM313 395Q277 395 246 378T197 329T178 251Q178
205 196 173T246 125T313 108Q349 108 380 124T430 173T449 251Q449 297 430 329T380 378T313 395ZM419 722Q447 722 468 702T489 653Q489 624 468 604T419 583Q390 583 370 603T350 653Q350 681 370 701T419 722ZM209 722Q237 722 258 702T279 653Q279 624 258
604T209 583Q180 583 160 603T140 653Q140 681 160 701T209 722Z" />
<glyph unicode="&#xf7;" glyph-name="divide" horiz-adv-x="551" d="M276 578Q306 578 328 557T350 504Q350 474 328 452T276 430Q245 430 224 452T202 504Q202 535 223 556T276 578ZM471 373V253H80V373H471ZM276 194Q306 194 328 173T350 120Q350 90 328 68T276
46Q245 46 224 68T202 120Q202 151 223 172T276 194Z" />
<glyph unicode="&#xf8;" glyph-name="oslash" horiz-adv-x="606" d="M313 518Q354 518 391 507T461 474L503 519L565 469L521 422Q550 387 567 344T584 251Q584 176 547 116T448 21T313 -15Q270 -15 230 -2T157 34L106 -20L47 30L100 87Q73 120 58 162T43 251Q43
326 80 386T178 482T313 518ZM313 395Q277 395 246 378T197 329T177 251Q178 214 191 184L374 381Q346 395 313 395ZM449 251Q449 293 431 326L243 126Q274 108 313 108Q349 108 380 124T430 173T449 251Z" />
<glyph unicode="&#xf9;" glyph-name="ugrave" horiz-adv-x="591" d="M524 505V204Q524 137 494 89T413 14T296 -12Q230 -12 179 14T98 88T68 204V505H196L197 227Q197 168 224 139T296 110Q340 110 367 139T395 227V505H524ZM195 715L302 640L296 573L189 648L195 715Z" />
<glyph unicode="&#xfa;" glyph-name="uacute" horiz-adv-x="591" d="M524 505V204Q524 137 494 89T413 14T296 -12Q230 -12 179 14T98 88T68 204V505H196L197 227Q197 168 224 139T296 110Q340 110 367 139T395 227V505H524ZM473 715L336 573H234L339 715H473Z" />
<glyph unicode="&#xfb;" glyph-name="ucircumflex" horiz-adv-x="591" d="M524 505V204Q524 137 494 89T413 14T296 -12Q230 -12 179 14T98 88T68 204V505H196L197 227Q197 168 224 139T296 110Q340 110 367 139T395 227V505H524ZM339 715L469 571H362L302 639L242
571H135L265 715H339Z" />
<glyph unicode="&#xfc;" glyph-name="udieresis" horiz-adv-x="591" d="M524 505V204Q524 137 494 89T413 14T296 -12Q230 -12 179 14T98 88T68 204V505H196L197 227Q197 168 224 139T296 110Q340 110 367 139T395 227V505H524ZM408 722Q436 722 457 702T478 653Q478
624 457 604T408 583Q379 583 359 603T339 653Q339 681 359 701T408 722ZM198 722Q226 722 247 702T268 653Q268 624 247 604T198 583Q169 583 149 603T129 653Q129 681 149 701T198 722Z" />
<glyph unicode="&#xfd;" glyph-name="yacute" horiz-adv-x="597" d="M158 505L302 183L442 505H587L220 -240H76L228 37L10 505H158ZM467 715L330 573H228L333 715H467Z" />
<glyph unicode="&#xfe;" glyph-name="thorn" horiz-adv-x="636" d="M78 720H205V420Q227 461 269 489T367 518Q427 518 478 488T561 399T593 256Q593 172 562 112T477 20T358 -12Q316 -12 275 7T205 57V-225H78V720ZM335 390Q301 390 271 373T223 324T205 247V174Q232
146 263 129T332 112Q371 112 400 132T445 185T461 256Q461 313 427 351T335 390Z" />
<glyph unicode="&#xff;" glyph-name="ydieresis" horiz-adv-x="597" d="M158 505L302 183L442 505H587L220 -240H76L228 37L10 505H158ZM401 722Q429 722 450 702T471 653Q471 624 450 604T401 583Q372 583 352 603T332 653Q332 681 352 701T401 722ZM191 722Q219
722 240 702T261 653Q261 624 240 604T191 583Q162 583 142 603T122 653Q122 681 142 701T191 722Z" />
<glyph unicode="&#x2013;" glyph-name="endash" horiz-adv-x="605" d="M550 318V198H60V318H550Z" />
<glyph unicode="&#x2014;" glyph-name="emdash" horiz-adv-x="888" d="M828 318V198H60V318H828Z" />
<glyph unicode="&#x2018;" glyph-name="quoteleft" horiz-adv-x="262" d="M150 688L242 672L152 413L40 441L150 688Z" />
<glyph unicode="&#x2019;" glyph-name="quoteright" horiz-adv-x="252" d="M115 688L227 660L117 413L25 429L115 688Z" />
<glyph unicode="&#x201a;" glyph-name="quotesinglbase" horiz-adv-x="346" d="M135 115L247 87L147 -165L55 -149L135 115Z" />
<glyph unicode="&#x201c;" glyph-name="quotedblleft" horiz-adv-x="472" d="M150 706L242 690L152 431L40 459L150 706ZM350 706L442 690L352 431L240 459L350 706Z" />
<glyph unicode="&#x201d;" glyph-name="quotedblright" horiz-adv-x="452" d="M317 426L225 442L315 701L427 673L317 426ZM117 426L25 442L115 701L227 673L117 426Z" />
<glyph unicode="&#x201e;" glyph-name="quotedblbase" horiz-adv-x="452" d="M317 -154L225 -138L315 121L427 93L317 -154ZM117 -154L25 -138L115 121L227 93L117 -154Z" />
<glyph unicode="&#x2022;" glyph-name="bullet" horiz-adv-x="451" d="M225 449Q265 449 298 430T351 377T371 303Q371 264 351 231T298 178T225 158Q185 158 152 178T100 231T80 303Q80 343 99 376T152 429T225 449Z" />
<glyph unicode="&#x2039;" glyph-name="guilsinglleft" horiz-adv-x="370" d="M290 32L55 227V265L290 468V339L180 247L290 161V32Z" />
<glyph unicode="&#x203a;" glyph-name="guilsinglright" horiz-adv-x="365" d="M80 468L315 273V235L80 32V161L190 253L80 339V468Z" />
</font>
</defs>
</svg>
